3D豪情/豪情2 3D.Naked.Ambition.[MKV/1.61G]

◎译  名 3D豪情 / 豪情2
◎片  名 3D Naked Ambition
◎年  代 上映日期: 2014-03-25(香港电影节) / 2014-04-03(香港)
◎国  家 香港
◎类  别 剧情 / 情色
◎语  言 粤语
◎字  幕 中文
◎IMDB评分 (awaiting 5 votes) Reviews: write review
◎文件格式 x264+ AC3
◎视频尺寸 1280 x 544
◎文件大小 1CD 1.61G
◎片  长 104min
◎导  演 李公乐 Kung-Lok Lee
◎主  演 杜汶泽 Chapman To
何超仪 Josie Ho
冲田杏梨 Anri Okita
古天乐 Tianle Gu
◎简  介
陈庆嘉03年执导、古天乐和陈奕迅主演的三级片《豪情》叫好叫座,相隔10年,终于开拍续集《3D豪情》,只是主角换上杜汶泽、何超仪及一班日本AV女优。阿泽和何超仪联同拍摄队伍赴东京取景,昨日本报记者直击拍摄现场,见波涛汹涌,扮演AV男优的杜汶泽更大战现年26岁、因拥有42L上围而被封为「人类最强Body」的AV女优冲田杏梨,宇宙大战一触即发!
Format : Matroska
File size : 1.61 GiB
Duration : 1h 44mn
Overall bit rate : 2 201 Kbps
Encoded date : UTC 2010-02-22 21:41:31
Writing application : mkvmerge v5.9.0 (‘On The Loose’) built on Dec 9 2012 15:37:01
Writing library : libebml v1.3.0 + libmatroska v1.4.0
Video #1
ID : 1
Format : AVC
Format/Info : Advanced Video Codec
Format profile : High@L3.1
Format settings, CABAC : Yes
Format settings, ReFrames : 4 frames
Muxing mode : Container profile=Unknown@3.1
Codec ID : V_MPEG4/ISO/AVC
Duration : 1h 44mn
Bit rate : 1 965 Kbps
Nominal bit rate : 2 000 Kbps
Width : 1 280 pixels
Height : 540 pixels
Display aspect ratio : 2.35:1
Frame rate : 23.976 fps
Resolution : 8 bits
Colorimetry : 4:2:0
Scan type : Progressive
Bits/(Pixel*Frame) : 0.119
Stream size : 1.44 GiB (89%)
Writing library : x264 core 116 r2074 2641b9e
Audio #2
ID : 2
Format : AC-3
Format/Info : Audio Coding 3
Codec ID : A_AC3
Duration : 1h 44mn
Bit rate mode : Constant
Bit rate : 192 Kbps
Channel(s) : 2 channels
Channel positions : L R
Sampling rate : 48.0 KHz
Stream size : 144 MiB (9%)
哈希校验 32d33aca2e31d01ba7e49eab72fd4770db7f657f
电影截图:

3D豪情/豪情2 3D.Naked.Ambition.[MKV/1.61G]3D豪情/豪情2 3D.Naked.Ambition.[MKV/1.61G]3D豪情/豪情2 3D.Naked.Ambition.[MKV/1.61G] 3D豪情/豪情2 3D.Naked.Ambition.[MKV/1.61G] 3D豪情/豪情2 3D.Naked.Ambition.[MKV/1.61G] 3D豪情/豪情2 3D.Naked.Ambition.[MKV/1.61G] 3D豪情/豪情2 3D.Naked.Ambition.[MKV/1.61G] 3D豪情/豪情2 3D.Naked.Ambition.[MKV/1.61G] 3D豪情/豪情2 3D.Naked.Ambition.[MKV/1.61G]

 

DOWN

发表评论